二次元虫洞
搜索
查看: 5461|回复: 22
收起左侧

[动漫音乐] 孤独摇滚 期间生产限定盘CD[FLAC整轨]44.1KHz/16bit

[复制链接]
  • TA的每日心情
    无聊
    2023-3-30 15:55
  • 4

    主题

    6

    帖子

    490

    积分

    大佬

    Rank: 3Rank: 3

    积分
    490
    发表于 2023-1-10 20:36:04 | 显示全部楼层 |阅读模式

    使用EAC抓取


    Exact Audio Copy V1.6 from 23. October 2020

    EAC 抓取日志文件从10. 一月 2023, 19:41

    結束バンド / 結束バンド

    使用驱动器  :HL-DT-STDVDRAM GH24NSD1   Adapter: 1  ID: 0

    读取模式      : 可靠Secure
    使用精确流     : 是
    清空音频缓存    : 是
    使用 C2 指示器 : 否

    读取偏移校正:               : 6
    读取 Lead-In 和 Lead-Out : 否
    用静音填充抓取中丢失偏移的采样       : 是
    去除首尾静音块               : 否
    在CRC 计算中使用了空样本       : 是
    已用接口                  : Win NT 及 2000 本地 Win32 接口

    所用输出模式:   : 用户定义的编码器
    已选比特率     : 768 kBit/s
    质量        : 高
    添加 ID3 标签 : 否
    命令行压缩器    : C:\Program Files (x86)\Exact Audio Copy\FLAC\FLAC.EXE
    附加命令行参数:  : -6 -V -T "ARTIST=%artist%" -T "TITLE=%title%" -T "ALBUM=%albumtitle%" -T "DATE=%year%" -T "TRACKNUMBER=%tracknr%" -T "GENRE=%genre%" -T "COMMENT=%comment%" -T "BAND=%albuminterpret%" -T "ALBUMARTIST=%albuminterpret%" -T "COMPOSER=%composer%" %haslyrics%--tag-from-file=LYRICS="%lyricsfile%"%haslyrics% -T "DISCNUMBER=%cdnumber%" -T "TOTALDISCS=%totalcds%" -T "TOTALTRACKS=%numtracks%" %hascover%--picture="%coverfile%"%hascover% %source% -o %dest%


    已抓取 CD 的 TOC

         音轨 |    起始    |    长度    |  起始扇区  |  结束扇区  
        --------------------------------------------
          1 |  0:00.00 |  3:23.47 |      0 |  15271
          2 |  3:23.47 |  3:52.18 |  15272 |  32689
          3 |  7:15.65 |  3:23.37 |  32690 |  47951
          4 | 10:39.27 |  3:52.20 |  47952 |  65371
          5 | 14:31.47 |  3:48.72 |  65372 |  82543
          6 | 18:20.44 |  3:08.74 |  82544 |  96717
          7 | 21:29.43 |  3:33.59 |  96718 | 112751
          8 | 25:03.27 |  4:25.10 | 112752 | 132636
          9 | 29:28.37 |  3:43.65 | 132637 | 149426
         10 | 33:12.27 |  3:47.27 | 149427 | 166478
         11 | 36:59.54 |  3:43.27 | 166479 | 183230
         12 | 40:43.06 |  4:18.13 | 183231 | 202593
         13 | 45:01.19 |  4:35.34 | 202594 | 223252
         14 | 49:36.53 |  4:31.61 | 223253 | 243638


    范围状态及错误

    已选择范围

         文件名 C:\Users\Polari_S_tation\Music\EAC\結束バンド - 結束バンド.wav

         峰值电平 98.4 %
         抓取速度 1.7 X
         范围质量 100.0 %
         测试 CRC 5D66D023
         复制 CRC 5D66D023
         复制成功

    没有错误发生


    AccurateRip 摘要

    音轨  1  精确地校准抓取  15)  [C2193878]  (AR v2)
    音轨  2  精确地校准抓取  15)  [09AB1866]  (AR v2)
    音轨  3  精确地校准抓取  15)  [1ACFEEF8]  (AR v2)
    音轨  4  精确地校准抓取  15)  [D6D2FC93]  (AR v2)
    音轨  5  精确地校准抓取  15)  [0A535247]  (AR v2)
    音轨  6  精确地校准抓取  15)  [6CF66F3D]  (AR v2)
    音轨  7  精确地校准抓取  15)  [A8BBD29E]  (AR v2)
    音轨  8  精确地校准抓取  15)  [3675127B]  (AR v2)
    音轨  9  精确地校准抓取  15)  [1C1DA8DE]  (AR v2)
    音轨 10  精确地校准抓取  15)  [2732DF9D]  (AR v2)
    音轨 11  精确地校准抓取  15)  [E123B2D4]  (AR v2)
    音轨 12  精确地校准抓取  15)  [75F4874D]  (AR v2)
    音轨 13  精确地校准抓取  15)  [09601B97]  (AR v2)
    音轨 14  精确地校准抓取  14)  [E858F6F7]  (AR v2)

    所有音轨精确校准抓取

    状态报告结尾

    ---- CUETools DB Plugin V2.1.6

    [CTDB TOCID: .oNVfiKgtU4PUiWbjEDhiKNp5Qg-] found
    Submit result: .oNVfiKgtU4PUiWbjEDhiKNp5Qg- has been confirmed
    Track | CTDB Status
      1   | (615/616) Accurately ripped
      2   | (614/616) Accurately ripped
      3   | (614/616) Accurately ripped
      4   | (614/616) Accurately ripped
      5   | (614/616) Accurately ripped
      6   | (614/616) Accurately ripped
      7   | (613/616) Accurately ripped
      8   | (613/616) Accurately ripped
      9   | (613/616) Accurately ripped
    10   | (613/616) Accurately ripped
    11   | (613/616) Accurately ripped
    12   | (613/616) Accurately ripped
    13   | (613/616) Accurately ripped
    14   | (613/616) Accurately ripped


    ==== 记录校验日志 E79E5CCB3722D75667068E3F833FE181CC5E67497813E14E9DFA99779C65E67E ====


    下载地址:
    腾讯微云
    [url=链接: https://pan.baidu.com/s/1dye9FzyGY5i0h7ALKUzDBg]百度网盘,提取码: 2333[/url]

    cover.jpg

    回复

    使用道具 举报

    该用户从未签到

    3307

    主题

    3445

    帖子

    2万

    积分

    版主

    Rank: 7Rank: 7Rank: 7

    积分
    28856
    发表于 2023-1-12 03:08:09 | 显示全部楼层

    忘了置顶了!
    回复 支持 1 反对 0

    使用道具 举报

    该用户从未签到

    3307

    主题

    3445

    帖子

    2万

    积分

    版主

    Rank: 7Rank: 7Rank: 7

    积分
    28856
    发表于 2023-1-11 01:41:53 | 显示全部楼层
    感谢自抓分享!
    回复 支持 1 反对 0

    使用道具 举报

    该用户从未签到

    0

    主题

    5650

    帖子

    6143

    积分

    传奇

    Rank: 8Rank: 8

    积分
    6143
    发表于 2023-1-10 22:57:21 | 显示全部楼层
    Thank you!!
    回复

    使用道具 举报

  • TA的每日心情
    郁闷
    4 小时前
  • 4

    主题

    4341

    帖子

    7万

    积分

    传奇

    Rank: 8Rank: 8

    积分
    76945
    发表于 2023-1-11 07:12:35 | 显示全部楼层
    thanks for sharing
    回复 支持 反对

    使用道具 举报

  • TA的每日心情
    无聊
    2023-3-30 15:55
  • 4

    主题

    6

    帖子

    490

    积分

    大佬

    Rank: 3Rank: 3

    积分
    490
     楼主| 发表于 2023-1-11 09:59:00 | 显示全部楼层

    感谢支持
    回复 支持 反对

    使用道具 举报

  • TA的每日心情
    开心
    2024-4-2 19:49
  • 0

    主题

    120

    帖子

    8332

    积分

    传奇

    Rank: 8Rank: 8

    积分
    8332
    发表于 2023-1-11 14:25:02 | 显示全部楼层

    Thank you!!
    回复

    使用道具 举报

  • TA的每日心情
    开心
    2023-1-26 23:11
  • 0

    主题

    5

    帖子

    139

    积分

    触手

    Rank: 2

    积分
    139
    发表于 2023-1-20 23:20:29 | 显示全部楼层
    It is greatly appreciated that you did, I really appreciate it!!
    回复 支持 反对

    使用道具 举报

  • TA的每日心情
    开心
    2024-3-29 23:20
  • 0

    主题

    18

    帖子

    9144

    积分

    传奇

    Rank: 8Rank: 8

    积分
    9144
    发表于 2023-1-22 20:32:25 | 显示全部楼层
    谢谢大佬!
    回复

    使用道具 举报

    该用户从未签到

    0

    主题

    12

    帖子

    74

    积分

    咸鱼

    Rank: 1

    积分
    74
    发表于 2023-1-26 14:32:49 | 显示全部楼层
    非常感谢!!
    回复

    使用道具 举报

    您需要登录后才可以回帖 登录 | 注册

    本版积分规则   你牛逼,你说话:

    小黑屋|手机版|简洁版|联系邮箱:goloen@qq.com

    GMT+8, 2024-4-19 06:50 , Processed in 0.051060 second(s), 17 queries , MemCached On.

    Powered by Discuz! X3.4

    © 2001-2013 二次元蟲洞

    快速回复 返回顶部 返回列表